迅雷下载资源正在逐渐增加,会增加多个数据源,保证数据更新,最近也在更新老片的资源,请善用列表里的索引分类和搜索功能,筛选最新的影片内容。×
当前位置:首页 > 动作片 > 空中世界二战/第二次世界大战的航班

空中世界二战 /第二次世界大战的航班

空中世界二战高清BT下载
  • Emile Edwin Smith
  • 美国
  • 0集
  • 2015
  • 86分钟
  • 4.7 010663
◎译 名 空中世界二战/第二次世界大战的航班 ◎片 名 Flight World War II ◎年 代 2015 ◎国 家……

   本站提供了多种下载方式,包括BT种子、迅雷下载、百度云网盘。BT种子和中文字幕我们也会尽快更新。
   手机用户请访问手机版网页:http://m.inapian.com/v/19447.html


分享到:

空中世界二战剧情介绍


◎译  名 空中世界二战/第二次世界大战的航班
◎片  名 Flight World War II
◎年  代 2015
◎国  家 美国
◎类  别 动作/历史/科幻/冒险
◎语  言 英语
◎上映日期 2015-06-02(美国)
◎IMDb评分  4.4/10 from 470 users
◎IMDb链接  http://www.imdb.com/title/tt4627104/
◎片  长 86分钟
◎导  演 Emile Edwin Smith
◎主  演 Faran Tahir
      Robbie Kay
      Aqueela Zoll

◎简  介

  Flight 42 was on its way, when it comes across an unidentifiable storm. Realizing they must go through, find themselves in France, 1940, World war II. A young soldier (Robbie Kay) tells them they are in the middle of a war zone. Dodging bullets and bombs the flight will attempt to make it back to modern day, without changing history too much.

Video
ID                                       : 1
Format                                   : AVC
Format/Info                              : Advanced Video Codec
Format profile                           : [email protected]
Format settings, CABAC                   : Yes
Format settings, ReFrames                : 4 frames
Codec ID                                 : V_MPEG4/ISO/AVC
Duration                                 : 1h 25mn
Bit rate                                 : 13.5 Mbps
Width                                    : 1 920 pixels
Height                                   : 1 080 pixels
Display aspect ratio                     : 16:9
Frame rate mode                          : Constant
Frame rate                               : 23.976 fps
Color space                              : YUV
Chroma subsampling                       : 4:2:0
Bit depth                                : 8 bits
Scan type                                : Progressive
Bits/(Pixel*Frame)                       : 0.272
Stream size                              : 8.04 GiB (92%)
Title                                    : Flight.World.War.II.2015.1080p.BluRay.x264.DTS-RARBG
Writing library                          : x264 core 148 r2597 e86f3a1
Encoding settings                        : cabac=1 / ref=4 / deblock=1:0:0 / analyse=0x3:0x113 / me=umh / subme=7 / psy=1 / psy_rd=1.00:0.00 / mixed_ref=1 / me_range=16 / chroma_me=1 / trellis=1 / 8x8dct=1 / cqm=0 / deadzone=21,11 / fast_pskip=0 / chroma_qp_offset=-2 / threads=6 / lookahead_threads=1 / sliced_threads=0 / nr=0 / decimate=1 / interlaced=0 / bluray_compat=0 / constrained_intra=0 / bframes=3 / b_pyramid=2 / b_adapt=1 / b_bias=0 / direct=1 / weightb=1 / open_gop=0 / weightp=2 / keyint=250 / keyint_min=23 / scenecut=40 / intra_refresh=0 / rc_lookahead=40 / rc=crf / mbtree=1 / crf=20.0 / qcomp=0.60 / qpmin=0 / qpmax=69 / qpstep=4 / ip_ratio=1.40 / aq=1:1.00
Default                                  : Yes
Forced                                   : No

Audio
ID                                       : 2
Format                                   : DTS
Format/Info                              : Digital Theater Systems
Mode                                     : 16
Format settings, Endianness              : Big
Codec ID                                 : A_DTS
Duration                                 : 1h 25mn
Bit rate mode                            : Constant
Bit rate                                 : 960 Kbps
Channel(s)                               : 6 channels
Channel positions                        : Front: L C R, Side: L R, LFE
Sampling rate                            : 48.0 KHz
Bit depth                                : 24 bits
Compression mode                         : Lossy
Stream size                              : 585 MiB (7%)
Title                                    : Flight.World.War.II.2015.1080p.BluRay.x264.DTS-RARBG
Language                                 : English
Default                                  : Yes
Forced                                   : No

Menu
00:00:00.000                             : en:00:00:00.000
00:05:55.564                             : en:00:05:55.564
00:12:50.603                             : en:00:12:50.603
00:20:20.177                             : en:00:20:20.177
00:25:55.763                             : en:00:25:55.763
00:32:33.285                             : en:00:32:33.285
00:40:12.869                             : en:00:40:12.869
00:45:34.398                             : en:00:45:34.398
00:52:44.203                             : en:00:52:44.203
00:58:55.365                             : en:00:58:55.365
01:05:14.828                             : en:01:05:14.828
01:10:16.003                             : en:01:10:16.003


温馨提示:您正在浏览的"《空中世界二战》BT种子下载"的剧情介绍来自于[www.inapian.com-就爱那片儿],如果您喜欢本站,请推荐给您的朋友,谢谢您的支持! 最后更新:

游客可直接发表发短评

  • 游客 2019-01-04
    me262弱爆

  • 游客 2019-01-04
    创意想法还是不错的,飞机穿越回二战,但确实算是很无趣的电影,没有看完,最近美国的烂片也出的比较多。

  • 游客 2019-01-04
    想法是不错,就是飞机都千疮百孔了还安全着陆就太不科学了,无线电小哥很可爱却在结尾诡异了一把

  • 游客 2019-01-04
    机长快递员带着现代雷达,穿越后,给英国小伙来送雷达系统的包裹,英国小伙拆了包裹,根据里面的说明书组装好雷达之后,不但可以帮助盟军,还帮助机长回到未来!最牛逼的帝国战斗机竟然可以发空对空导弹呢!二战的战斗机你咋那么牛逼呢!客机都被你导弹打出来个大窟窿呢!收到现代雷达系统后记得好评哟

今日更新影片

  • 全部
  • 电影
  • 电视剧
  • 动漫

热播推荐